#TITLE:The Accident Rate;
#SUBTITLE:Initiate;
#ARTIST:Girl Next Door;
#TITLETRANSLIT:;
#SUBTITLETRANSLIT:;
#ARTISTTRANSLIT:;
#CREDIT:;
#BANNER:tar-bn.jpg;
#BACKGROUND:;
#LYRICSPATH:;
#CDTITLE:cdtitle.png;
#MUSIC:theaccidentrate.mp3;
#OFFSET:0.000;
#SAMPLESTART:87.300;
#SAMPLELENGTH:11.940;
#SELECTABLE:YES;
#DISPLAYBPM:121.000;
#BPMS:0.000=121.000,64.250=242.000,64.750=60.500,65.000=242.000,65.500=60.500,65.750=242.000,66.250=60.500,66.500=121.000,174.000=242.000,174.667=60.500,174.688=60.500,175.000=242.000,175.667=60.500,175.688=60.500,176.000=121.000,204.000=242.000,204.500=60.500,204.750=242.000,205.250=60.500,205.500=121.000,236.000=242.000,236.500=60.500,236.750=242.000,237.250=60.500,237.500=121.000,272.000=242.000,272.646=60.500,273.063=121.000,273.125=121.000,273.188=121.000,273.375=242.000,273.500=242.000,274.188=60.500,274.500=121.000;
#STOPS:28.500=0.020
,29.000=0.020
,29.500=0.020
,30.000=0.020
,30.500=0.020
,130.000=0.020
;
#BGCHANGES:;
// cache tags:
#FIRSTBEAT:0.000;
#LASTBEAT:304.500;
#SONGFILENAME:Songs/Initiate/theaccidentrate/theaccidentrate.sm;
#HASMUSIC:1;
#HASBANNER:1;
#MUSICLENGTH:152.946;
// end cache tags

//---------------dance-single - ----------------
#NOTES:
     dance-single:
     :
     Hard:
     7:
     0.791,0.846,1.000,0.242,0.314,448.000,341.000,37.000,0.000,45.000:
1000
0000
0000
0100
0000
0010
0000
0001
,
0000
0010
0100
1000
,
0100
0010
0001
0010
,
0100
1000
0100
0010
,
1001
0000
0000
0110
0000
1010
0000
0101
,
0000
0011
1100
0110
,
2002
0000
0000
0000
,
0220
0000
0000
0000
0000
0000
0000
0000
0000
0000
0000
0000
0000
0000
0000
0000
0000
0000
0000
0000
0000
0000
0000
0000
0000
0000
0000
0000
0000
0000
0000
0000
3003
0000
0000
0000
0000
0000
0000
0000
0000
0000
0000
0000
0000
0000
0000
0000
0000
0000
0000
0000
0000
0000
0000
0000
0000
0000
0000
0000
0000
0000
0000
0330
,
0110
0110
0000
0110
0110
0000
0000
0110
0000
0000
0110
0000
0110
0000
0000
0000
,
1001
1001
0000
1001
1001
0000
0000
1001
0000
0000
1001
0000
1001
0000
0000
0000
,
1100
1100
0000
1100
1100
0000
0000
1100
0000
0000
1100
0000
1100
0000
0000
0000
,
0011
0011
0000
0011
0011
0000
0000
0011
0000
0000
0011
0000
0011
0000
0000
0000
,
1100
0000
0001
0000
1100
0000
0001
0000
1100
0000
0001
0010
1100
0000
0000
0000
,
0011
0000
0100
0000
0011
0000
0100
0000
0011
0000
0100
1000
0011
0000
0000
0000
,
0101
0000
1000
0000
0101
0000
1000
0000
0101
0000
1000
0010
0101
0000
0000
0000
,
1010
0001
1010
0001
1010
0110
1001
0000
,
0000
0111
0000
0000
1110
0000
0000
0111
0000
0000
1110
0000
0000
0000
0000
0000
,
0101
0110
0110
1001
,
0101
1001
0110
1100
,
1100
0101
1100
1001
,
0011
0101
1100
0011
,
1010
0101
0011
0110
,
1010
0110
0011
0110
,
1010
0000
0001
0000
0110
0000
0011
1100
0011
0000
0101
0000
1010
0000
0000
0000
,
0101
0000
1000
0000
0110
0000
1100
0011
1100
0000
1001
0000
0110
0000
0000
0000
,
1100
0000
0000
0110
0000
0000
0022
0000
0000
0000
0000
0000
1133
0000
0110
0000
,
0011
0000
0000
1100
0000
0000
0220
0000
0000
0000
0000
0000
1331
0000
0000
0000
,
0101
0000
0000
0110
0000
0000
2200
0000
0000
0000
3311
0000
1001
0000
0101
0000
,
0110
0000
0000
1010
0000
0000
0202
0000
0000
0000
0000
0000
1313
0000
0000
0000
,
1100
0001
0011
0010
0110
0100
1100
1000
,
1001
0001
0011
0010
0110
1000
1001
1000
,
0011
0000
0100
0000
1010
0000
1100
0011
1100
0000
0101
0000
1010
0000
0000
0000
,
1100
0000
0001
0000
0101
0000
1100
0011
1100
0000
0101
0000
1010
0000
0110
0000
,
0022
0000
1133
0101
0000
0000
0011
2200
,
0000
3311
0101
1010
,
0101
0000
0101
0220
1001
0000
1001
0000
,
1331
0000
0110
0000
1100
0011
0110
1001
,
0220
0000
1331
0110
0000
0000
0011
0000
,
1001
0110
1001
0110
,
1001
1100
0011
0101
,
1110
0000
0000
0000
0100
1000
0111
0000
0000
0000
0111
0000
1101
0000
0000
0000
,
0110
0011
0110
1010
0000
1100
2002
0000
,
3013
0000
0100
0000
0010
0000
1000
0000
0010
0000
0001
0000
1000
0010
0100
0000
0001
0000
0100
0000
0001
0000
1000
0000
0100
0010
0001
1000
0010
0100
1000
0001
,
0020
0000
1131
1101
,
1001
0000
0110
0000
1100
0000
1010
0101
0000
1010
0011
0000
0000
0000
0101
0011
,
1100
0000
1010
0000
0101
0000
0011
1010
0000
0101
1010
0000
0000
0000
0000
0000
,
0110
0000
1001
0000
0110
0000
0101
1010
0000
0101
1010
0000
0000
0000
1001
1100
,
0011
0000
0110
0000
1001
0000
0110
0011
0000
1010
0101
0000
0000
0000
0000
0000
,
0011
0000
0110
0000
0110
0000
1001
0110
0000
0110
1001
0000
0000
0000
0101
1010
,
0101
0000
0011
0000
1010
0000
1100
1010
0000
0011
0101
0000
0000
0000
0000
0000
,
0002
0000
0010
1113
0000
0111
1110
0000
,
0111
0000
0000
1110
0000
0000
0222
0000
0000
0000
1000
0000
1333
0000
0000
0000
,
1100
0000
0000
0000
0110
0000
1010
0101
0000
0101
1010
0000
0000
0000
1100
0110
,
0011
0000
0110
0000
1100
0000
0110
1001
0000
1001
0110
0000
0000
0000
0000
0000
,
0011
0000
0011
0000
1001
0000
0011
1010
0000
1100
0101
0000
0000
0000
0011
0000
,
1100
0000
0110
0000
0011
0000
0110
1001
0000
1001
0110
0000
0000
0000
0000
0000
,
0101
0000
0011
0000
0101
0000
0011
1010
0000
0101
1100
0000
0000
0000
0011
0101
,
1100
0000
0110
0000
0011
0000
1100
0101
0000
0101
0011
0000
0000
0000
0000
0000
,
0002
0000
0100
1113
0000
0011
0110
1100
,
0111
0000
0000
0111
0000
0000
0222
0000
0000
0000
1000
0000
1333
0000
0000
0000
,
1001
0000
1001
2002
0000
0010
3100
0010
,
1100
0010
0100
0010
1100
0010
0100
0010
1100
0010
0100
0010
1100
0010
0100
0010
,
1103
0000
0000
0000
0101
0000
0000
0110
0000
0000
0110
0000
0110
0000
0000
0000
,
0011
0000
0000
0000
0011
0000
0000
0101
0000
0000
1100
0000
0110
0000
0000
0000
,
1100
0000
0000
0000
1100
0000
0000
0011
0000
0000
0101
0000
1010
0000
0000
0000
,
0110
0000
0001
0000
1001
0000
0110
1001
0110
0000
1010
0000
1010
0000
0000
0000
,
0011
0000
0000
0000
0101
0000
0000
0110
0000
0000
1100
0000
0101
0000
0000
0000
,
0110
0000
0000
0000
0110
0000
0000
1001
0000
0000
0110
0000
0110
0000
0000
0000
,
0202
0000
1313
0111
0000
0011
0101
0000
,
1001
0100
0010
0100
1001
0010
0100
0010
1001
0100
0010
0100
1001
0000
0000
0000
,
1001
0100
0010
0100
1001
0010
0100
0010
1001
0100
0010
0100
1001
0000
0000
0000
,
0000
2002
0000
0000
0000
0000
0000
0000
,
0000
0000
0000
0000
,
0000
0000
0000
0000
,
0000
0000
0000
0000
,
0000
0000
0000
0000
,
0000
3003
0000
0000
0000
0000
0000
0000
;

//---------------dance-single - Tony----------------
#NOTES:
     dance-single:
     Tony:
     Edit:
     9:
     0.968,1.000,1.000,0.242,0.487,602.000,353.000,37.000,0.000,68.000:
1010
0100
0010
0001
0000
0010
0000
1000
,
0101
0010
0100
0000
0100
0000
0010
0000
,
0101
0010
0001
0010
,
0101
1000
0100
0010
,
1001
0010
0100
1010
0000
0100
0000
0101
,
0010
0011
1100
0110
,
2000
0000
0000
0000
,
0002
0000
0000
3003
,
1010
0100
0000
0100
0010
0000
0001
0100
0000
0010
0100
0000
0110
0000
0000
0000
,
1000
0100
0000
0100
1000
0000
0001
0010
0000
0100
0010
0000
1001
0000
0000
0000
,
0101
1010
0000
1010
0101
0000
0011
1100
0000
1100
0011
0000
1100
0000
0000
0000
,
0011
0110
0000
0110
0011
0000
1100
0101
0000
0101
1100
0000
0011
0000
0000
0000
,
1101
0010
0000
0100
1010
0000
0011
0100
0000
0010
0101
0000
1100
0000
0000
0000
,
0011
1000
0000
0010
0101
0000
0110
1001
0000
1010
0101
0000
0011
0000
0000
0000
,
0101
1010
0000
1100
0110
0000
1001
0110
0000
0101
1010
0000
0101
0000
0000
0000
,
1010
0101
0000
0100
1010
0000
0010
1001
0110
0000
0110
0000
1001
0000
0000
0000
,
0010
1101
0000
0000
0111
0000
0000
1101
0000
0000
1011
0000
0000
0000
0000
0000
,
0101
0000
0100
0000
1010
0000
0010
0000
1010
0100
0001
0100
1010
0000
1000
0000
,
0101
0000
0010
0000
1001
0000
0100
0000
0110
0001
0010
0100
1001
0000
0010
0000
,
1100
0000
1000
0000
0101
0000
0010
0000
1001
0010
0100
0010
1001
0000
1000
0000
,
0011
0000
0100
0000
0101
0000
0010
0000
1010
0100
0001
0010
1100
0000
0100
0000
,
1010
0000
0001
0000
0101
0000
1000
0000
1100
0010
0100
1000
0110
0000
0001
0000
,
1010
0000
0100
0000
0110
0000
0010
0000
0101
0010
1000
0100
0011
0000
0100
0000
,
1010
0000
1001
0000
0110
0000
0101
1010
0000
0000
1001
0000
0110
0000
0010
0000
,
0101
0000
0000
0000
1001
0000
0000
0000
0110
0000
0000
0000
1100
0000
0011
0000
0000
0000
0000
0000
1001
0000
0000
0000
0110
0000
0000
0000
0100
0000
0001
0010
,
1100
0100
1010
0001
1010
0100
1100
0110
,
0011
0000
0100
0000
1100
0000
0010
0000
0011
0100
0010
0100
1001
0000
0010
0000
,
0101
0000
0100
0000
1100
0000
0010
0000
0101
0010
1000
1001
0110
0000
0101
0000
,
0110
0000
1000
0000
1010
0000
0010
0000
0110
0010
0100
1000
0110
0000
1010
0000
,
1101
0000
0001
0000
0011
0000
0100
0000
1010
0001
0101
1000
0110
0000
1000
0000
,
1001
0000
0010
0000
0101
0000
0001
0000
0110
0100
1000
0100
0011
0000
1000
0000
,
0101
0000
1001
0000
1010
0000
1100
0011
1100
0000
0101
0000
1010
0000
0011
0000
,
1100
0000
1001
0000
0101
0000
0010
0001
1100
0000
0110
0000
0011
0000
0110
0000
,
2000
0000
0110
3001
0110
0100
1010
1000
,
1100
0010
0101
1000
0101
0010
1010
0100
,
0201
0000
0301
0002
1000
0100
0110
0010
,
2003
0000
0110
3001
1100
0011
0110
1001
,
0220
0000
1001
1330
1100
0010
0101
1000
,
1012
0000
0110
1000
1013
0100
0110
0001
,
1201
0000
0001
1000
0001
0010
1000
0010
1301
0010
0100
1000
1101
0000
0000
0000
,
2220
0000
0000
0001
3330
0000
0111
0000
0000
0000
0101
0000
1011
0000
0100
0010
,
1101
0000
0100
0000
1010
0000
0121
0000
0000
0000
1100
0000
0031
0000
0100
0010
,
1101
0000
0010
0000
0100
0000
0001
0000
0100
0000
0001
0000
1101
0010
0100
0000
0010
0000
0100
0000
0101
0000
1000
0000
0100
0010
0001
1000
0010
0100
1000
0010
,
0002
1000
0100
0010
0100
1000
0100
0010
1103
0000
0000
0000
1101
0000
0000
0000
,
1011
0000
1000
0000
1100
0000
1010
0101
0000
1010
0011
0000
0100
0000
0100
0010
,
1001
0000
1010
0000
0101
0000
0011
1010
0000
0101
1010
0000
0101
0000
0110
0000
,
0110
0000
1001
0000
0110
0000
1001
0110
0000
1010
0101
0000
0001
0000
0101
0010
,
1001
0000
0110
0000
1001
0000
0110
0011
0000
0101
1010
0000
1000
1000
1000
0100
,
0011
0000
0110
0000
0110
0000
1001
0110
0000
0110
1001
0000
0001
0000
0110
1001
,
0110
0000
0011
0000
1010
0000
1100
0011
0000
0101
1010
1000
1100
0000
0100
0000
,
1021
0000
0100
1231
0000
1301
1110
0000
,
0111
0000
0000
1110
0000
0000
0222
0000
0000
0000
1000
0000
1333
0000
0000
0000
,
1010
0000
0100
0000
0110
0000
1010
0101
0000
0101
1010
0000
0001
0000
0100
1001
,
0110
0000
0110
0000
1100
0000
0110
1001
0000
1001
0110
0000
0010
0000
0100
0000
,
1001
0000
1010
0000
0101
0000
0011
1010
0000
1100
0101
0000
0110
0000
0010
0000
,
1001
0000
0110
0000
0011
0000
0110
1001
0000
1001
0110
0000
1100
0000
0110
0000
,
0101
0000
0011
0000
0101
0000
0011
1010
0000
0101
1100
0000
0010
0000
0001
0110
,
1001
0000
0110
0000
0011
0000
1100
0101
0000
0110
1001
0110
0100
0000
0100
0000
,
0121
0000
0100
1231
0000
0011
1310
1100
,
1011
0000
0000
1110
0000
0000
0222
0000
0000
0000
1000
0000
1333
0000
0000
0000
,
1001
0000
0000
0000
1001
0000
0002
0010
0100
0000
0100
0000
0100
0010
1003
0000
,
1102
0000
1100
0000
1100
1100
0000
1100
1100
0000
0010
0100
0010
0000
1000
0000
,
1113
0000
1000
0000
0101
0000
1001
0110
0000
0110
1001
0000
0001
0000
0010
0100
,
1011
0000
1000
0000
1101
0000
0000
0101
0000
1001
0110
0000
0110
0000
1001
0000
,
1101
0000
0001
0000
1010
0000
1100
0011
0000
0101
1010
0000
1010
0000
0100
0010
,
1101
0000
0001
0000
1001
0000
0110
1001
0110
0000
1010
0000
2010
0000
0010
0000
,
3011
0000
0100
0000
0101
0000
0110
1001
0000
0011
1100
0000
1010
0000
0100
0010
,
1101
0000
1001
0000
0110
0000
0000
1001
0000
0101
1100
0000
0110
0000
0010
0000
,
2002
0000
0000
0000
3113
0000
1221
0000
0000
0000
0331
0000
0001
0020
0000
0000
,
1000
0130
0000
0010
0100
0000
0100
0010
0000
0010
0100
0000
1001
0000
0000
0000
,
1101
0010
0000
1000
0111
0000
0010
1101
0000
0100
0010
0000
1011
0000
1010
0000
,
1001
2222
0000
0000
0000
0000
0000
0000
,
0000
0000
0000
0000
,
0000
0000
0000
0000
,
0000
0000
0000
0000
,
0000
0000
0000
0000
,
0000
3333
0000
0000
0000
0000
0000
0000
;
